Children.Of.The.Corn.Genesis.2011.DvDRip.XviD.Ac3.Feel-Free

Download Download Torrent
Added September 5 2011
Categorymovies
Seeds / Peers2 / 81 Refresh Leechers
Size933.3 MB
Hash485e89e0a0bff43ee9829a8c555d3a8df4ce75e7
Files
932.77 MB Children.Of.The.Corn.Genesis.2011.DvDRip.XviD.Ac3.Feel-Free.avi
Trackers
http://tracker.thepiratebay.org/announce
udp://tracker.openbittorrent.com:80
udp://tracker.ccc.de:80
udp://tracker.istole.it:80
udp://tracker.publicbt.com:80
http://pow7.com/announce
http://10.rarbg.com/announce
http://tracker.novalayer.org:6969/announce
http://9.rarbg.com:2710/announce
Description
Genre:Horror | Thriller
Language:English

http://www.imdb.com/title/tt1745672/

Source:DVD Thanks!

Format : AVI
Format/Info : Audio Video Interleave
File size : 933 MiB
Duration : 1h 20mn
Overall bit rate : 1 618 Kbps

Video
ID : 0
Format : MPEG-4 Visual
Format profile : Advanced Simple@L5
Format settings, BVOP : Yes
Format settings, QPel : No
Format settings, GMC : No warppoints
Format settings, Matrix : Default (H.263)
Codec ID : XVID
Codec ID/Hint : XviD
Duration : 1h 20mn
Bit rate : 1 161 Kbps
Width : 640 pixels
Height : 272 pixels
Display aspect ratio : 2.35:1
Frame rate : 23.976 fps
Color space : YUV
Chroma subsampling : 4:2:0
Bit depth : 8 bits
Scan type : Progressive
Bits/(Pixel*Frame) : 0.278
Stream size : 669 MiB (72%)
Writing library : XviD 1.2.1 (UTC 2008-12-04)

Audio
ID : 1
Format : AC-3
Format/Info : Audio Coding 3
Mode extension : CM (complete main)
Codec ID : 2000
Duration : 1h 20mn
Bit rate mode : Constant
Bit rate : 448 Kbps
Channel(s) : 6 channels
Channel positions : Front: L C R, Side: L R, LFE
Sampling rate : 48.0 KHz
Bit depth : 16 bits
Stream size : 258 MiB (28%)
Alignment : Aligned on interleaves
Interleave, duration : 42 ms (1.00 video frame)
Interleave, preload duration : 512 ms


Plot:
A young couple tries to free an imprisoned child with catastrophic results

Locations no locations

Related

FILE SIZE SEEDS PEERS ADDED
JM - Gutter Mouths 2 XXX DVDRip - misc Verified 1016.07 MB 0 0 7 hours
Garth Ennis: Punisher 1-12 (of 12|Marvel|2000-01|Dgtl-HR|Empire) - misc Verified 396.54 MB 1 0 8 hours
Garth Ennis: The Authority - Kev (Wildstorm|2002|Dgtl-HR|MM-PhD) - misc Verified 68.66 MB 1 4 8 hours
Dictionary of Colorful Phrases - G. Carothers & J. Lacey - misc 2.69 MB 24 5 8 hours
Chic Knits for Stylish Babies: 65 Charming Patterns for the First Year - misc Verified 113.91 MB 1 0 8 hours
A Critical History of English Literature, vol. 1, part 1 - David Daiches - misc 163.07 MB 1 78 8 hours
A Critical History of English Literature vol. 1, part 2 - David Daiches - misc 192.82 MB 2 18 8 hours
A Critical History of English Literature vol. 2, part 1 - David Daiches - misc 224.82 MB 1 35 8 hours
A Critical History of English Literature vol. 2, part 2 - David Daiches - misc 36.89 MB 0 33 8 hours
Legends of the Dark Knight 082 (2014) (Digital) (Mephisto-Empire).cbr (- Nem -) - misc Verified 10.04 MB 2 3 8 hours
God and Science - Return of the Ti-Girls (2012) (digital) (Minutemen-InnerPhDemons).cbr (- Nem -) - misc Verified 147.57 MB 1 0 8 hours
[HorribleSubs] Garo - The Animation - 12 [1080p].mkv - anime Verified 714.57 MB 345 182 8 hours
[HorribleSubs] Garo - The Animation - 12 [480p].mkv - anime Verified 192.32 MB 413 143 8 hours
[HorribleSubs] Garo - The Animation - 12 [720p].mkv - anime Verified 441.32 MB 759 581 8 hours
[AnimeRG] Garo - The Animation - 12 [720p] [Xcelent].mp4 - anime Verified 282.65 MB 4 8 8 hours
GTA Chinatown Wars 1.00 Android APK Data Obb Cracked Modded Free Compressed Grand Theft Auto {OsmDroid} - games Verified 495.65 MB 138 149 9 hours
Game of Thrones Android 1.11 APK DATA OBB Adreno Telltale Free Download GOT Compressed {OsmDroid} - games Verified 736.3 MB 23 44 9 hours
Call.of.Duty.Advanced.Warfare.[v1.5].Repack-R.G.Mechanics - games Verified 27.13 GB 81 608 9 hours
V.A. - Christmas Blues (2011) [FLAC] - music Verified 328.15 MB 2 15 9 hours
Motion Device - Welcome to the Rock Revolution (ep) (2014) - music 51.64 MB 1 1 9 hours
gotham rebels biathlon star wars rebels the perfect gift movie skye-model 2nd video 9yo jenny cum nablot fazail-e-durood shareef aur sultan noor-ud-din zangi mp3 jenny 9yo winrar win zip kalina ryu the novice mp4 ism-019-001 jpg gone girl mp4 exploitedcollegegirls pthc babyj torrent torrent pthc pthc brother sister sammy torrent mature nl